Forum Sveta kompjutera

Nazad   Forum Sveta kompjutera > Test Run > Video/TV softver

Video/TV softver Video programi, formati, kodeci, konvertori, DVD/TV softver, satelitski/DVB programi, DivX i sl.

Odgovor
 
Alatke vezane za temu Vrste prikaza
Stara 11.10.2009, 19:15   #1
Petra.E.
Novi član
 
Član od: 10.9.2009.
Poruke: 17
Zahvalnice: 2
Zahvaljeno 0 puta na 0 poruka
Određen forumom Korišćenje digitalnog fotoaparata kao video playera?

Da ne zna neko od vas koji video format mogu da koristim da bi ga fotoaparat prepoznao? Znam da se najcesce koristi Motion JPEG, tj MJPEG, i konvertovala sam AVI u taj format, ali ga fotoaparat i dalje ne prepoznaje na kartici. Htela sam da prikljucim fotoaparat na tv, zbog filmova, ali mi to pravi veeeliki problem. Inace, imam Samsung L100, ako nesto pomaze pri odgovoru
Petra.E. je offline   Odgovor sa citatom ove poruke
Stara 12.10.2009, 9:33   #2
ilidan
V.I.P. Video/TV softver
 
Član od: 24.12.2005.
Poruke: 1.700
Zahvalnice: 140
Zahvaljeno 462 puta na 359 poruka
Određen forumom Re: Koriscenje digitalnog fotoaparata kao video player-a?

Snimi mali klip aparatom i prebaci u kompjuter. Skini sa neta MediaInfo i ucitaj klip u ovaj program. Dace ti podatke o kontejneru, audio i video kodeku, rezoluciji, frejmrejtu, bitrejtu, semplrejtu.
Konvertuj neki video postujuci ove parametre, ubaci u isti folder u kom i fotoaparat cuva fajlove, i pokusaj opet.
ilidan je offline   Odgovor sa citatom ove poruke
Stara 30.10.2009, 16:31   #3
Stranger2
Veteran
 
Član od: 23.9.2009.
Poruke: 892
Zahvalnice: 597
Zahvaljeno 312 puta na 165 poruka
Određen forumom Re: Korišćenje digitalnog fotoaparata kao video playera?

Citat:
Znam da se najcesce koristi Motion JPEG, tj MJPEG, i konvertovala sam AVI u taj format
- MJPEG je format video zapisa
- a AVi je format containera
- Container je fajlo koji sadrzi Video zapis i Audio zapis i omogucava sinhronizovanuo pustanje videa i prateceg zvuka.

Dakle ne mozes konvertovati MJPG u AVI
Fotoaparati uobicajeno MJPG video zapisa stavljaju u AVI container tako da na kraju dobijas AVI fajlove koji unutar sebe sadrze MJPG video zapis...

Kao sto ti je vec receno, skini program MediaInfo.
Podesi na prikaz tekstualnih podataka o fajlu pa ih kopiraj ovde na forum da bas vidimo o kojim tacno formatima se radi.
Stranger2 je offline   Odgovor sa citatom ove poruke
Stara 17.11.2009, 4:08   #4
simke21
Novi član
 
Član od: 17.11.2009.
Poruke: 2
Zahvalnice: 0
Zahvaljeno 0 puta na 0 poruka
Određen forumom Re: Korišćenje digitalnog fotoaparata kao video playera?

i mene zanima korišćenje digitalnog fotoaparata kao video playera. moj fotoaparat je canon powershot a530 a ovo su detalji klipa snimljeni ovim fotoaparatom.

Complete name : C:\Documents and Settings\Simici\My Documents\My Pictures\2009_03_26\MVI_0020.AVI
Format : AVI
Format/Info : Audio Video Interleave
File size : 141 MiB
Duration : 4min 29s
Overall bit rate : 4 .374 Kbps
Mastered date : THU MAR 26 22:02:22 2009
Writing application : CanonMVI02

Video
ID : 0
Format : M-JPEG
Codec ID : MJPG
Duration : 4min 29s
Bit rate : 4 .284 Kbps
Width : 640 piksela
Height : 480 piksela
Display aspect ratio : 4:3
Frame rate : 10,000 fps
Resolution : 24 bita
Scan type : Progresivno
Bits/(Pixel*Frame) : 1.394
Stream size : 138 MiB (98%)

Audio
Format : PCM
Format settings, Endianness : Little
Format settings, Sign : Unsigned
Codec ID : 1
Codec ID/Hint : Microsoft
Duration : 4min 29s
Bit rate mode : Ustaljeno
Bit rate : 88,2 Kbps
Channel(s) : 1 kanal
Sampling rate : 11,024 KHz
Resolution : 8 bita
Stream size : 2,83 MiB (2%)
Interleave, duration : 998 ms (9,98 video-sličice)
Interleave, preload duration : 1000 ms


koji konvertor da skinem da bi ovo sve mogao da podesim?
simke21 je offline   Odgovor sa citatom ove poruke
Stara 19.11.2009, 11:06   #5
Stranger2
Veteran
 
Član od: 23.9.2009.
Poruke: 892
Zahvalnice: 597
Zahvaljeno 312 puta na 165 poruka
Određen forumom Re: Korišćenje digitalnog fotoaparata kao video playera?

Citat:
Format : M-JPEG
video mora biti enkodiran u MJPEG formatu.

Citat:
Audio
Format : PCM
to je format audio iz WAV fajlova. prakticno nekompresovan, veliki fajlovi.

Mislim da i MJPEG i PCM imas ugradjene u VirtualDub-u pa u njemu mozes konvertovati. Moze i mediacoder da konvertuje u iste.
VirtualDub uvek snima u AVI format containera a u MediaCoder-u trebas izabrati AVI container i onda ce fajlovi raditi na tvom fotoaparatu.

Citat:
Width : 640 piksela
Height : 480 piksela
Ako nece da pusta sve rezolucije onda moras koristiti bas ovu 640x480
Stranger2 je offline   Odgovor sa citatom ove poruke
Stara 19.11.2009, 14:36   #6
ilidan
V.I.P. Video/TV softver
 
Član od: 24.12.2005.
Poruke: 1.700
Zahvalnice: 140
Zahvaljeno 462 puta na 359 poruka
Određen forumom Re: Korišćenje digitalnog fotoaparata kao video playera?

Frame rate: 10,000 fps
Ako je ovo maksimalno podržan frame rate, ne isplati se koristiti ga kao video plejer. Pri ovom frame rate-u će slika izgledati kao da secka i preskače pojedine delove, što je iritirajuće. A M-JPEG i PCM zauzimaju ogromnu količinu memorije.
ilidan je offline   Odgovor sa citatom ove poruke
Stara 21.11.2009, 17:00   #7
Petra.E.
Novi član
 
Član od: 10.9.2009.
Poruke: 17
Zahvalnice: 2
Zahvaljeno 0 puta na 0 poruka
Određen forumom Re: Korišćenje digitalnog fotoaparata kao video playera?

General
Complete name : D:\SLIKE\clipovi\mis.AVI
Format : AVI
Format/Info : Audio Video Interleave
File size : 147 MiB
Duration : 1mn 21s
Overall bit rate : 15.3 Mbps

Video
ID : 0
Format : M-JPEG
Codec ID : MJPG
Duration : 1mn 21s
Bit rate : 14.9 Mbps
Width : 640 pixels
Height : 480 pixels
Display aspect ratio : 4:3
Frame rate : 30.000 fps
Resolution : 24 bits
Scan type : Progressive
Bits/(Pixel*Frame) : 1.615
Stream size : 144 MiB (98%)

Audio
Format : PCM
Format settings, Endianness : Little
Format settings, Sign : Unsigned
Codec ID : 1
Codec ID/Hint : Microsoft
Duration : 1mn 20s
Bit rate mode : Constant
Bit rate : 352.8 Kbps
Channel(s) : 1 channel
Sampling rate : 22.05 KHz
Resolution : 16 bits
Stream size : 3.41 MiB (2%)
Interleave, duration : 33 ms (1.00 video frame)


i?
Petra.E. je offline   Odgovor sa citatom ove poruke
Stara 21.11.2009, 22:51   #8
ilidan
V.I.P. Video/TV softver
 
Član od: 24.12.2005.
Poruke: 1.700
Zahvalnice: 140
Zahvaljeno 462 puta na 359 poruka
Određen forumom Re: Korišćenje digitalnog fotoaparata kao video playera?

WOW! 100MB za 1 minut snimka. Trebaće ti oko 9GB prostora za film od sat i po.
Uglavnom, probaj VirtualDub + FFDShow (VFW) za konverziju jer ima M-JPEG kodek. Ili PicVideo kodek. Za audio, Full processing i No compression.
Rezolucija slike na 640x480. Dodaj crne trake (Black borders) ako resize deformiše sliku da bi dobila 640x480. I Video - Frame Rate - Convert to fps 30.
ilidan je offline   Odgovor sa citatom ove poruke
Stara 26.11.2009, 0:47   #9
simke21
Novi član
 
Član od: 17.11.2009.
Poruke: 2
Zahvalnice: 0
Zahvaljeno 0 puta na 0 poruka
Određen forumom Re: Korišćenje digitalnog fotoaparata kao video playera?

Sa VirtualDub-om ne znam da se snadjem, a MediaCoder obecava, ali nikako ne uspevam da ga lepo podesim. Uvek mi izbacuje neke greske, tj. verovatno bi trebalo jos nesto ukljuciti/iskljuciti, al ne znam sta. Ako neko moze da mi objasni sta da ukljucim/iskljucim bio bih mu zahvalan.
simke21 je offline   Odgovor sa citatom ove poruke
Odgovor

Bookmarks sajtovi

Alatke vezane za temu
Vrste prikaza

Vaš status
Ne možete postavljati teme
Ne možete odgovarati na poruke
Ne možete slati priloge uz poruke
Ne možete prepravljati svoje poruke

BB kod: uključeno
Smajliji: uključeno
[IMG] kod: uključeno
HTML kod: isključeno


Slične teme
tema temu započeo forum Odgovora Poslednja poruka
Pomoć oko izbora digitalnog fotoaparata BorisBG ŠDK - Foto i audio/video 406 15.3.2020 13:03
YouTube mi iskasapi video :( BugA Video/TV softver 6 4.4.2010 22:13
Koje slušalice koristite kao referentne u testovima MP3 playera? nebojsa986 Tekstovi u SK 13 25.9.2009 23:24
Kako napraviti internet tv olujnik Video/TV softver 4 11.6.2008 19:19


Sva vremena su po Griniču +2 h. Sada je 2:56.


Powered by vBulletin® verzija 3.8.7
Copyright ©2000–2021, vBulletin Solutions, Inc.
Hosted by Beograd.com