Forum Sveta kompjutera

Nazad   Forum Sveta kompjutera > Test Run > Video/TV softver

Video/TV softver Video programi, formati, kodeci, konvertori, DVD/TV softver, satelitski/DVB programi, DivX i sl.

Odgovor
 
Alatke vezane za temu Vrste prikaza
Stara 9.2.2013, 16:25   #1
zvucnjak
Starosedelac
 
Član od: 2.12.2005.
Lokacija: Beograd
Poruke: 1.644
Zahvalnice: 799
Zahvaljeno 249 puta na 141 poruka
Određen forumom MPEG error?

Pozdrav

Da li neko možda zna zašto neki editori neće da otvore .mpg fajl (sniman digitalnom kamerom)?

Premiere kaže nešto u fazonu "error importing mpeg file" a VirtualDub kaže ovo:
Priložene slike
Kliknite na sliku za veću verziju

Ime:	mpegerror.jpg
Viđeno:	97 puta
Veličina:	25,9 KB
ID:	45465  
zvucnjak je offline   Odgovor sa citatom ove poruke
Stara 9.2.2013, 23:32   #2
ilidan
V.I.P. Video/TV softver
 
Član od: 24.12.2005.
Poruke: 1.700
Zahvalnice: 140
Zahvaljeno 462 puta na 359 poruka
Određen forumom Re: MPEG error?

VirtualDub ne može direktno da otvori MPEG-2 video. Treba ti MPEG2 Input plugin za to.
ilidan je offline   Odgovor sa citatom ove poruke
Stara 11.2.2013, 18:23   #3
zvucnjak
Starosedelac
 
Član od: 2.12.2005.
Lokacija: Beograd
Poruke: 1.644
Zahvalnice: 799
Zahvaljeno 249 puta na 141 poruka
Određen forumom Re: MPEG error?

Hoće li ovo pomoći i u Premieru?
zvucnjak je offline   Odgovor sa citatom ove poruke
Stara 11.2.2013, 22:52   #4
ilidan
V.I.P. Video/TV softver
 
Član od: 24.12.2005.
Poruke: 1.700
Zahvalnice: 140
Zahvaljeno 462 puta na 359 poruka
Određen forumom Re: MPEG error?

Ovaj plugin? Ne, to je isključivo za VirtualDub. Međutim, ja sam ti to predložio jer VD sumnja da je u pitanju MPEG2 fajl ali ne znači da je u pravu. Učitaj taj fajl u MediaInfo da bi smo tačno znali o kom formatu i kodeku je reč.
ilidan je offline   Odgovor sa citatom ove poruke
Stara 11.2.2013, 22:57   #5
zvucnjak
Starosedelac
 
Član od: 2.12.2005.
Lokacija: Beograd
Poruke: 1.644
Zahvalnice: 799
Zahvaljeno 249 puta na 141 poruka
Određen forumom Re: MPEG error?

Jel dovoljno ovo?

Citat:
General
Complete name : D:\My Documents\My Videos\!! VIDEO SA KAMERE\101PNV01\M2U00009.MPG
Format : MPEG-PS
File size : 1.10 GiB
Duration : 28mn 8s
Overall bit rate mode : Variable
Overall bit rate : 5 585 Kbps

Video
ID : 224 (0xE0)
Format : MPEG Video
Format version : Version 2
Format profile : Main@Main
Format settings, BVOP : Yes
Format settings, Matrix : Custom
Format settings, GOP : M=3, N=12
Duration : 28mn 8s
Bit rate mode : Variable
Bit rate : 5 218 Kbps
Maximum bit rate : 9 100 Kbps
Width : 720 pixels
Height : 576 pixels
Display aspect ratio : 4:3
Frame rate : 25.000 fps
Standard : PAL
Color space : YUV
Chroma subsampling : 4:2:0
Bit depth : 8 bits
Scan type : Interlaced
Scan order : Top Field First
Compression mode : Lossy
Bits/(Pixel*Frame) : 0.503
Stream size : 1.03 GiB (93%)

Audio
ID : 189 (0xBD)-128 (0x80)
Format : AC-3
Format/Info : Audio Coding 3
Mode extension : CM (complete main)
Format settings, Endianness : Big
Muxing mode : DVD-Video
Duration : 28mn 8s
Bit rate mode : Constant
Bit rate : 256 Kbps
Channel(s) : 2 channels
Channel positions : Front: L R
Sampling rate : 48.0 KHz
Bit depth : 16 bits
Compression mode : Lossy
Delay relative to video : -80ms
Stream size : 51.5 MiB (5%)
zvucnjak je offline   Odgovor sa citatom ove poruke
Stara 12.2.2013, 0:53   #6
ilidan
V.I.P. Video/TV softver
 
Član od: 24.12.2005.
Poruke: 1.700
Zahvalnice: 140
Zahvaljeno 462 puta na 359 poruka
Određen forumom Re: MPEG error?

Klasičan Mpeg2 fajl. Ne znam zašto ti Premiere pravi problem. Možda je problem u ekstenziji. Probaj da je promeniš u .mpeg pošto se .mpg obično koristi za Mpeg1 fajlove.
ilidan je offline   Odgovor sa citatom ove poruke
Stara 28.2.2013, 2:13   #7
zvucnjak
Starosedelac
 
Član od: 2.12.2005.
Lokacija: Beograd
Poruke: 1.644
Zahvalnice: 799
Zahvaljeno 249 puta na 141 poruka
Određen forumom Re: MPEG error?

Ne pomaže ni preimenovanje... BTW od nedavno koristim MPC plejer, i on se ruši kad probam da pustim ove fajlove.

On the other hand, uspeo sam da otvorim u AVS editoru. Šteta što on nema opciju cropovanja, onda mi Premiere verovatno ne bi ni trebao...
zvucnjak je offline   Odgovor sa citatom ove poruke
Stara 28.2.2013, 14:39   #8
VojaM
Ad Ministrator
 
Avatar korisnika VojaM
 
Član od: 19.8.2005.
Lokacija: Beograd, SK
Poruke: 7.280
Zahvalnice: 29
Zahvaljeno 3.040 puta na 1.544 poruka
Određen forumom Re: MPEG error?

Možda AVS editor ima opciju konverzije u neki standardniji MGEG format.
VojaM je offline   Odgovor sa citatom ove poruke
Stara 11.3.2013, 2:57   #9
deks007
Član
 
Član od: 19.4.2006.
Poruke: 77
Zahvalnice: 0
Zahvaljeno 14 puta na 13 poruka
Određen forumom Re: MPEG error?

Predlog je da pokusas sa SonyVegasom on radi sa mpeg fajlovima ja mislim jos od verzije 7 a Premier bas ne guta tako dobro mpeg . Ili okaci negde minut filma . Pozdrav !
deks007 je offline   Odgovor sa citatom ove poruke
Odgovor

Bookmarks sajtovi

Tagovi
error, mpeg

Alatke vezane za temu
Vrste prikaza

Vaš status
Ne možete postavljati teme
Ne možete odgovarati na poruke
Ne možete slati priloge uz poruke
Ne možete prepravljati svoje poruke

BB kod: uključeno
Smajliji: uključeno
[IMG] kod: uključeno
HTML kod: isključeno


Slične teme
tema temu započeo forum Odgovora Poslednja poruka
GTA 4 za PC! JJ92 Akcione igre 8733 10.11.2020 16:30
ASUS Maximus IV GENE-Z/GEN3 ne baca sliku ecimko Osnovne komponente 8 12.8.2012 20:26
Fleš neće da se formatira HiddEn Zaštita 41 11.1.2011 12:02
Problem sa podizanjem sistema petarrsfc Kvarovi 11 18.10.2010 15:16
JDstart.exe damagedgoods Zaštita 14 24.12.2009 11:43


Sva vremena su po Griniču +2 h. Sada je 6:53.


Powered by vBulletin® verzija 3.8.7
Copyright ©2000–2020, vBulletin Solutions, Inc.
Hosted by Beograd.com