Prikaz jedne poruke
Stara 21.11.2021, 2:21   #3
ZoNi
Deo inventara foruma
 
Član od: 24.10.2005.
Lokacija: •••BGD•••
Poruke: 8.491
Zahvalnice: 2.111
Zahvaljeno 1.892 puta na 1.384 poruka
Određen forumom Re: Kropovanje videa?

Ovaj program nema podešavanja audia, ako se kao izlazni format izabere mp4

Evo kako izgleda originalni audio (prvi, onaj kod koga piše RADI) i novodobijeni (NE RADI)...

Spoiler za mediainfo:
Audio RADI
ID : 2
Format : AAC LC
Format/Info : Advanced Audio Codec Low Complexity
Codec ID : mp4a-40-2
Duration : 2 min 0 s
Bit rate mode : Constant
Bit rate : 96.0 kb/s
Channel(s) : 2 channels
Channel layout : L R
Sampling rate : 48.0 kHz
Frame rate : 46.875 FPS (1024 SPF)
Compression mode : Lossy
Stream size : 1.37 MiB (11%)
Default : Yes
Alternate group : 1
************************************************** **********
Audio NE RADI
ID : 1
Format : AAC Main
Format/Info : Advanced Audio Codec
Codec ID : mp4a-40-1
Duration : 2 min 0 s
Source duration : 2 min 0 s
Bit rate mode : Constant
Bit rate : 128 kb/s
Channel(s) : 2 channels
Channel layout : L R
Sampling rate : 48.0 kHz
Frame rate : 46.875 FPS (1024 SPF)
Compression mode : Lossy
Stream size : 1.83 MiB (15%)
Source stream size : 1.83 MiB (15%)
Language : English
Encoded date : UTC 2021-11-08 11:06:59
Tagged date : UTC 2021-11-08 11:06:59
mdhd_Duration : 120106
ZoNi je offline   Odgovor sa citatom ove poruke